Make use of C2 pointers :.
Flac" wave track 13 audio application pour s'entrainer au poker title "Lulu's Back in Town" REM replaygain_track_gain -1.33 dB REM replaygain_track_peak.999969 index 01 00:00:00 file letonia keno ultimele rezultate "14 - Riverboat Blues.Star Dust - 3:22." - Scott Wenzel Michael Cuscuna, liner notes.This sextet would make one more album, the first of Teagardens three final LPs all for Verve.A year later, with Barrett Deems at the drums, they recorded twenty-four pieces, five of which are issued here for the first time.James Infirmary (Instrumental Version) - 5:22.Ewell, who plays consistently at the leader's level and also wrote the arrangements, is featured without the front line in swinging treatments of "Honeysuckle Rose" and "Atlanta Blues.".Disable audio cache : argent web espace jeux OK for the drive with a cache less than 1375KiB.That's a Plenty - 5:30.
Louis Blues - 5:52.
Tin Roof Blues - 4:46.
Flac Track gain :.25 dB Peak :.999969 CRC32 hash (test run) : 8ADD440D CRC32 hash : 8ADD440D CRC32 hash (skip zero) : 9C8E2069 AccurateRip v1 signature : A6384ADC AccurateRip v2 signature : 55E23AA9 - Accurately ripped (v1v2, confidence 33/6) Statistics Read error.Flac" wave track 06 audio title "South Rampart Street Parade" REM replaygain_track_gain -2.53 dB REM replaygain_track_peak.999969 index 01 00:00:00 file "07 - Mixed Emotions.Flac" wave track 08 audio title "A Hundred Years from Today" REM replaygain_track_gain -4.78 dB REM replaygain_track_peak.977234 index 01 00:00:00 file "09 - Tin Roof Blues.Runnin' Wild - 2:58.Mahogany Hall Stomp - 4:48.The rest appeared on "The Dixie Sound Of Jack Teagarden" and the posthumously issued "A Portrait.Flac" wave track 08 audio title "Handful of Keys" REM replaygain_track_gain -1.12 dB REM replaygain_track_peak.930511 index 01 00:00:00 file "09 - I Can't Get Started.When Day Is Done - 2:40.Flac" wave track 07 audio title "Mixed Emotions" REM replaygain_track_gain -3.39 dB REM replaygain_track_peak.891571 index 01 00:00:00 file "08 - Basin Street Blues.Flac Track gain : -0.51 dB Peak :.996368 CRC32 hash (test run) : AA7E3284 CRC32 hash : AA7E3284 CRC32 hash (skip zero) : F21ffcd6 AccurateRip v1 signature : 1088BE59 AccurateRip v2 signature : cfaab922 - Accurately ripped (v1v2, confidence 33/6) Statistics Read error.Somebody Loves Me - 2:46.Lulu's Back in Town - 4:35.

All Tracks Album gain : -2.74 dB Peak :.999969 Statistics Read error : 0 Jitter error (maybe fixed) : 0 Retry sector count : 0 Damaged sector count : 0 Track 01 Filename : /Users/Shared/Temp/Jack Teagarden - The Complete Roulette Jack Teagarden Sessions (2003).
Flac" wave track 03 audio title "Royal Garden Blues" REM replaygain_track_gain -3.45 dB REM replaygain_track_peak.999969 index 01 00:00:00 file "04 - Star Dust.
Flac Track gain : -2.80 dB Peak :.935577 CRC32 hash (test run) : 12604D76 CRC32 hash : 12604D76 CRC32 hash (skip zero) : 931C1E08 AccurateRip v1 signature : 0266765D AccurateRip v2 signature : 1125DB1B - Accurately ripped (v1v2, confidence 32/5) Statistics Read error.